Начать новую тему Ответить на тему  [ 1 сообщение ] 
Статистика раздачи
Размер|   2.76 ГБ    |   2 959 872 202 байт   
Раздают: 40     Качают: 20     
Последний личер: | 7 дней 19 часов 53 минуты 45 секунд назад  | (Google it!)

Автор Сообщение
Непрочитанное сообщение Добавлено: 24 ноя 2021, 19:23 
Ответить с цитатой
Не в сети
Администратор
Администратор
Аватара пользователя


открыть

Раздал: 21 ТБ
Скачал: 2.18 ТБ
Ратио: 1008.637


Зарегистрирован: 01 июл 2016, 17:16
Сообщения: 763
Баллы репутации: 20
За активное участие в обсуждениях
Медали: 11
Активисту (1) за участие (1) Создание сайта (1) За 100 релизов (1) за 200 релизов (1)
За 500 релизов (1) За 1000 релизов (1) за 3000 релизов (1) за 4000 релизов (1) Кандидат на повышение (1)
Подписчику в группе ВК (1)
Убийство онлайн / Safer at Home [2021, Триллер, BDRip 720p | Кинопоиск HD] 

Информация о фильме
Название: Убийство онлайн
Оригинальное название: Safer at Home
Год выхода: 2021
Жанр: Триллер
Режиссер: Уилл Верник

В ролях: Джослин Хадон, Эмма Лахана, Элиса Эллепач, Эдвин Браун, Дэн Дж. Джонсон, Майкл Куписк, Дэниэл Робер, Лия Бозонелис, Кэти Л. Холл, Марк Ирвингсен

Слоган: «Изоляция - убийца»

О фильме: Распространяющаяся пандемия коронавируса вызывает настоящий хаос в Лос-Анджелесе, а город трансформируется в штат полицейских. Главные герои устраивают вечеринку онлайн в зуме, чтобы играть всю ночь в видеоигры, пробовать наркотики и спиртное. Но после употребления экстази их жизнь дома превращается в ужас.



Выпущено: США / 7930 Entertainment, Showdown Productions, Voltage Pictures
Продолжительность: 01:24:45
Перевод: Дублированный Кинопоиск HD

Файл
Качество: BDRip 720p
Формат: MKV
Видео: MPEG-4 AVC/H.264, 3642 Кбит/сек, 1280x674
Аудио #1: Русский: AC3, 6 ch, 384 Кбит/сек
Аудио #2: Английский: E-AC3, 6 ch, 640 Кбит/сек
Субтитры: английские, украинские [вшитые отключаемые]
Дополнительно: Сохранены оригинальные главы (чаптеры)
Общее
Уникальный идентификатор : 162404950149029178975844089743066117310 (0x7A2E0E3FCA7DE122F47A8A85441DB4BE)
Полное имя : F:\1.ФИЛЬМЫ\01. ФИЛЬМЫ\Убийство онлайн Safer at Home (2021)\Ubiystvo onlayn Safer at Home (2021) BDRip 720p Kinopoisk HD.mkv
Формат : Matroska
Версия формата : Version 4
Размер файла : 2,76 Гбайт
Продолжительность : 1 ч. 24 м.
Общий поток : 4 656 Кбит/сек
Дата кодирования : UTC 2021-11-23 21:50:31
Программа кодирования : mkvmerge v63.0.0 ('Everything') 64-bit
Библиотека кодирования : libebml v1.4.2 + libmatroska v1.6.4
Attachments : poster.jpg

Видео
Идентификатор : 1
Формат : AVC
Формат/Информация : Advanced Video Codec
Профиль формата : High@L4.1
Настройки формата : 9 Ref Frames
Параметр CABAC формата : Нет
Параметр RefFrames формата : 9 кадров
Идентификатор кодека : V_MPEG4/ISO/AVC
Продолжительность : 1 ч. 24 м.
Битрейт : 3 642 Кбит/сек
Ширина : 1 280 пикселей
Высота : 674 пикселя
Соотношение сторон : 1,899
Режим частоты кадров : Постоянный
Частота кадров : 23,976 (24000/1001) кадра/сек
Цветовое пространство : YUV
Субдискретизация насыщенности : 4:2:0
Битовая глубина : 8 бит
Тип развёртки : Прогрессивная
Бит/(Пиксели*Кадры) : 0.176
Размер потока : 2,15 Гбайт (78%)
Заголовок : USA (7930 Entertainment, Showdown Productions, Voltage Pictures)
Библиотека кодирования : x264 core 159 r2991 1771b55
Настройки программы : cabac=0 / ref=9 / deblock=1:-3:-3 / analyse=0x3:0x133 / me=umh / subme=11 / psy=1 / psy_rd=1.05:0.10 / mixed_ref=1 / me_range=32 / chroma_me=1 / trellis=2 / 8x8dct=1 / cqm=0 / deadzone=21,11 / fast_pskip=0 / chroma_qp_offset=-3 / threads=29 / lookahead_threads=5 / sliced_threads=0 / nr=0 / decimate=0 / interlaced=0 / bluray_compat=0 / constrained_intra=0 / bframes=16 / b_pyramid=2 / b_adapt=2 / b_bias=12 / direct=3 / weightb=1 / open_gop=0 / weightp=1 / keyint=240 / keyint_min=24 / scenecut=40 / intra_refresh=0 / rc_lookahead=60 / rc=2pass / mbtree=0 / bitrate=3642 / ratetol=1.0 / qcomp=0.70 / qpmin=4 / qpmax=69 / qpstep=4 / cplxblur=20.0 / qblur=0.5 / vbv_maxrate=5000 / vbv_bufsize=4000 / nal_hrd=none / filler=0 / ip_ratio=1.40 / pb_ratio=1.30 / aq=2:1.00
Язык : English
Default : Да
Forced : Нет
Цветовой диапазон : Limited
Основные цвета : BT.709
Характеристики трансфера : BT.709
Коэффициенты матрицы : BT.709

Аудио #1
Идентификатор : 2
Формат : AC-3
Формат/Информация : Audio Coding 3
Коммерческое название : Dolby Digital
Идентификатор кодека : A_AC3
Продолжительность : 1 ч. 24 м.
Вид битрейта : Постоянный
Битрейт : 384 Кбит/сек
Каналы : 6 каналов
Channel layout : L R C LFE Ls Rs
Частота : 48,0 КГц
Частота кадров : 31,250 кадров/сек (1536 SPF)
Битовая глубина : 32 бит
Метод сжатия : С потерями
Размер потока : 233 Мбайт (8%)
Заголовок : Dub (Kinopoisk HD)
Язык : Russian
Service kind : Complete Main
Default : Да
Forced : Да

Аудио #2
Идентификатор : 3
Формат : E-AC-3
Формат/Информация : Enhanced AC-3
Коммерческое название : Dolby Digital Plus
Идентификатор кодека : A_EAC3
Продолжительность : 1 ч. 24 м.
Вид битрейта : Постоянный
Битрейт : 640 Кбит/сек
Каналы : 6 каналов
Channel layout : L R C LFE Ls Rs
Частота : 48,0 КГц
Частота кадров : 31,250 кадров/сек (1536 SPF)
Битовая глубина : 32 бит
Метод сжатия : С потерями
Размер потока : 388 Мбайт (14%)
Заголовок : Original (English)
Язык : English
Service kind : Complete Main
Default : Да
Forced : Нет

Текст #1
Идентификатор : 4
Формат : ASS
Идентификатор кодека : S_TEXT/ASS
Идентификатор кодека/Информация : Advanced Sub Station Alpha
Продолжительность : 1 ч. 22 м.
Битрейт : 137 бит/сек
Count of elements : 1569
Метод сжатия : Без потерь
Размер потока : 82,8 Кбайт (0%)
Язык : English
Default : Да
Forced : Нет

Текст #2
Идентификатор : 5
Формат : ASS
Идентификатор кодека : S_TEXT/ASS
Идентификатор кодека/Информация : Advanced Sub Station Alpha
Продолжительность : 1 ч. 22 м.
Битрейт : 193 бит/сек
Count of elements : 1569
Метод сжатия : Без потерь
Размер потока : 116 Кбайт (0%)
Язык : Ukrainian
Default : Да
Forced : Нет

Меню
00:00:00.000 : :Глава 01
00:10:37.095 : :Глава 02
00:20:52.334 : :Глава 03
00:31:51.201 : :Глава 04
00:43:11.047 : :Глава 05
00:51:24.248 : :Глава 06
01:01:49.831 : :Глава 07
01:11:53.559 : :Глава 08
01:22:16.014 : :Глава 09


_________________


На вопросы когда?, а можно? не отвечаю.
Добавить mytorrento.ru в поисковую строку

 Профиль
 
 

Запрещено категорически:
» Развязывать разборки (для этого есть ЛС)
» Оставлять комментарии, не относящиеся к содержанию материала.
» Добавлять спам, рекламу флуд..
К спаму относится:
1. Реклама любого направления.
2. Ссылки на сторонние ресурсы рекламного характера.
3. Ссылки на ресурсы порнографического направления.
4. Сылки на блоги и им подбным контeнтам.
» Запрещено оскорбление администрации, модераторов и пользователей.
» Часто писать с вкл. Caps Lock
»За нарушение правил бан или отключение без объяснений.
Уважайте чужой труд!

Правила могут дополняться и изменяться. С уважением Администрация.
Убийство онлайн / Safer at Home [2021, Триллер, BDRip 720p | Кинопоиск HD].torrent 
Зарегистрирован:  24 ноя 2021, 19:23  HASH|49bbff0ee713881960e24d06e67e3b04f9159f3e| (Google it!)
Автор раздачи:  Иваныч 
Статус:  √ Проверен  Иваныч (24 ноя 2021, 19:23)
Торрент:  Размер: 2.76 ГБ | Скачан: 54 раз | Торрент файл: 15.02 КБ  
Приватный:    Нет (DHT включён)   Раздают: 40  | Качают: 20 
Здоровье:   100%
Поделиться:
 
Как качать?
Как качать?
X
Скачайте торрент и откройте его в своем клиенте
uTorrent

скачать программу,
дождитесь окончания загрузки.
* Как заливать?
Как заливать?
X

Для того чтобы начать загружать материалы необходимо:
1.Быть зарегистрированным пользователем.
2. Выбрать желаемое направление по жанру.
3. Иметь желание работать на сайте.
4. Возраст должен быть 18+.
5. Желательно иметь опыт работы на других трекерах,
если нет такового не страшно поможем.

Инструкция




Показать сообщения за:  Поле сортировки  
Начать новую тему Ответить на тему  [ 1 сообщение ] 

   Похожие торренты   Автор   Ответы   Просмотры   Последнее сообщение 
Непрочитанные сообщения Скачать торрент Магнет ссылка √ Проверен Перейти к первому непрочитанному сообщениюУбийство онлайн / Дома безопаснее / Safer at Home [2021, Триллер, BDRip 1080p | Кинопоиск HD] За каждые 2.76 байт. аплоада (сидирования) этого торрента начисляется бонус: 2.000

в форуме Фильмы HDRip / BDRIp / 720, 1080, Размер: 7.11 ГБ, Здоровье: 100%

K15

0
44|6

29
20

02 дек 2021, 18:34

K15 Перейти к последнему сообщению

Непрочитанные сообщения Скачать торрент Магнет ссылка √ Проверен Перейти к первому непрочитанному сообщениюДевять дней / Nine Days (Эдсон Ода) [2020, Фэнтези, драма, BDRip 720p] MVO (Кинопоиск HD) + Original + Sub (Rus/Eng) За каждые 2.76 байт. аплоада (сидирования) этого торрента начисляется бонус: 2.000

в форуме Фильмы HDRip / BDRIp / 720, 1080, Размер: 4.79 ГБ, Здоровье: 100%

K15

0
90|13

14
571

03 дек 2021, 17:47

K15 Перейти к последнему сообщению

Непрочитанные сообщения Скачать торрент Магнет ссылка √ Проверен Перейти к первому непрочитанному сообщениюХороший, плохой, коп / Copshop (Джо Карнахан) [2021, Триллер, боевик, криминал, BDRip 720p] [DUB,MVO] [iTunes, HDRezka Studio] За каждые 2.76 байт. аплоада (сидирования) этого торрента начисляется бонус: 2.000

в форуме Фильмы HDRip / BDRIp / 720, 1080, Размер: 5.03 ГБ, Здоровье: 100%

ZUBDOLGOPA

0
1005|285

43
5053

27 ноя 2021, 04:00

ZUBDOLGOPA Перейти к последнему сообщению

Непрочитанные сообщения Скачать торрент Магнет ссылка √ Проверен Перейти к первому непрочитанному сообщениюПончары. Глобальное закругление (Дэвид Силверман, Рэймонд С. Перси) [2021, Мультфильм, приключения, комедия, BDRip 1080p] [DUB] [Кинопоиск HD] За каждые 2.76 байт. аплоада (сидирования) этого торрента начисляется бонус: 2.000

в форуме Зарубежные мульт фильмы, Размер: 5.23 ГБ, Здоровье: 100%

K15

0
467|205

38
1133

26 ноя 2021, 20:23

K15 Перейти к последнему сообщению

Непрочитанные сообщения Скачать торрент Магнет ссылка √ Проверен Перейти к первому непрочитанному сообщениюКольцо времени / Volition (Тони Дин Смит) [2019, Фантастика, триллер, BDRip 720p] [MVO] [iTunes] За каждые 2.76 байт. аплоада (сидирования) этого торрента начисляется бонус: 2.000

в форуме Фильмы HDRip / BDRIp / 720, 1080, Размер: 3.23 ГБ, Здоровье: 100%

ZUBDOLGOPA

0
465|41

29
1754

27 ноя 2021, 03:26

ZUBDOLGOPA Перейти к последнему сообщению



Кто сейчас на конференции

Сейчас этот форум просматривают: нет зарегистрированных пользователей и гости: 8


Вы не можете начинать темы
Вы не можете отвечать на сообщения
Вы не можете редактировать свои сообщения
Вы не можете удалять свои сообщения
Вы не можете добавлять вложения

Найти:
Перейти:  
cron
Привет, меня зовут Ёко, я что-то типа ангела хранителя Mytorrnado club! (Если вы попали на наш портал, советуем задержаться у нас и посмотрель материалы.А лучше всего оставайтесь и делитесь своими файлами со всем народом.Кроме этого вы сможете просмотреть нужный фильм в оригинальном качестве.Регистрируйтесь и воспользуйтесь всеми опциями трекера.)
ppkBB3cker v.2 © 2008-2014 @ PPK