Начать новую тему Ответить на тему  [ 1 сообщение ] 
Статистика раздачи
Размер|   14.4 ГБ    |   15 463 427 134 байт   
Раздают: 12     Качают:    
Последний личер: | 3 дня 3 часа 12 минут 18 секунд назад  | (Google it!)

Автор Сообщение
Непрочитанное сообщение Добавлено: 24 ноя 2021, 06:39 
Ответить с цитатой
Не в сети
Администратор
Администратор
Аватара пользователя


открыть

Раздал: 21 ТБ
Скачал: 2.18 ТБ
Ратио: 1008.637


Зарегистрирован: 01 июл 2016, 17:16
Сообщения: 763
Баллы репутации: 20
За активное участие в обсуждениях
Медали: 11
Активисту (1) за участие (1) Создание сайта (1) За 100 релизов (1) за 200 релизов (1)
За 500 релизов (1) За 1000 релизов (1) за 3000 релизов (1) за 4000 релизов (1) Кандидат на повышение (1)
Подписчику в группе ВК (1)
Зов ада / Jiok / Сезон 1: 1-6 из 6 серий (Ён Сан-хо) [2021, фэнтези, драма, триллер, ужасы, WEB-DL 1080p] [HDrezka Studio] 

Год выпуска: 2021
Страна: Южная Корея
Студия: Climax Studio, Netflix
Жанр: фэнтези, драма, триллер, ужасы
Продолжительность: ~00:49:00 серия
Перевод: Профессиональный (многоголосый, закадровый) HDrezka Studio
Субтитры: русские, английские, корейские

Режиссер:Ён Сан-хо
В ролях:Ю А-ин, Ян Ик-чун, Ким Хён-джу, Пак Чон-мин, Вон Джин-а, Ким До-юн, Ким Щин-нок, Рю Гён-су, Ли Рэ, Ким Гю-бэк и другие

Описание:
По всему миру происходит загадочный феномен — некоторые люди начинают слышать предсказание о своей смерти, и точно в назначенное время за ними приходят злобные существа и жестоко убивают. Лидер набирающей популярность религиозной организации «Новая правда» считает происходящее божественным откровением.

Примечание: Рекламы нет
Качество: WEB-DL 1080p
Формат: MKV
Видео кодек: AVC
Аудио кодек: АС3/E-АС3
Видео: 1920x1080 at 23.976 fps, MPEG4-AVC, ~3300-5300 kbps
Аудио #01: 48 kHz, AC3, 3/2 (L,C,R,l,r) + LFE ch, ~448 kbps Русский
Аудио #02: 48 kHz, E-AC3, 3/2 (L,C,R,l,r) + LFE ch, ~768 kbps Корейский
Аудио #03: 48 kHz, E-AC3, 3/2 (L,C,R,l,r) + LFE ch, ~768 kbps Английский
Общее
Уникальный идентификатор : 226456586956950625458330607536376891981 (0xAA5DF3C2E1C66550D2DF38B7D157CA4D)
Полное имя : Hellbound.S01E01.mkv
Формат : Matroska
Версия формата : Version 4
Размер файла : 1,79 Гбайт
Продолжительность : 48 м. 51 с.
Режим общего битрейта : Переменный
Общий поток : 5 257 Кбит/сек
Название фильма : Hellbound S01E01 | mrrvg@rutor
Дата кодирования : UTC 2021-11-20 11:02:08
Программа кодирования : mkvmerge v63.0.0 ('Everything') 64-bit
Библиотека кодирования : libebml v1.4.2 + libmatroska v1.6.4

Видео
Идентификатор : 1
Формат : AVC
Формат/Информация : Advanced Video Codec
Профиль формата : High@L4
Настройки формата : CABAC / 4 Ref Frames
Параметр CABAC формата : Да
Параметр RefFrames формата : 4 кадра
Идентификатор кодека : V_MPEG4/ISO/AVC
Продолжительность : 48 м. 50 с.
Вид битрейта : Переменный
Битрейт : 3 286 Кбит/сек
Максимальный битрейт : 20,0 Мбит/сек
Ширина : 1 920 пикселей
Высота : 1 080 пикселей
Соотношение сторон : 16:9
Режим частоты кадров : Постоянный
Частота кадров : 23,976 (24000/1001) кадра/сек
Цветовое пространство : YUV
Субдискретизация насыщенности : 4:2:0
Битовая глубина : 8 бит
Тип развёртки : Прогрессивная
Бит/(Пиксели*Кадры) : 0.066
Размер потока : 1,12 Гбайт (62%)
Библиотека кодирования : x264 core 148 r2724 dbe0335
Настройки программы : cabac=1 / ref=4 / deblock=1:0:0 / analyse=0x3:0x111 / me=umh / subme=10 / psy=1 / psy_rd=1.00:0.00 / mixed_ref=1 / me_range=120 / chroma_me=1 / trellis=2 / 8x8dct=1 / cqm=0 / deadzone=21,11 / fast_pskip=1 / chroma_qp_offset=-2 / threads=8 / lookahead_threads=2 / sliced_threads=0 / nr=0 / decimate=1 / interlaced=0 / bluray_compat=0 / stitchable=1 / constrained_intra=0 / bframes=16 / b_pyramid=2 / b_adapt=2 / b_bias=0 / direct=3 / weightb=1 / open_gop=0 / weightp=2 / keyint=240 / keyint_min=121 / scenecut=0 / intra_refresh=0 / rc_lookahead=240 / rc=crf / mbtree=1 / crf=20.0 / qcomp=0.50 / qpmin=6 / qpmax=51 / qpstep=4 / vbv_maxrate=20000 / vbv_bufsize=25000 / crf_max=0.0 / nal_hrd=vbr / filler=0 / ip_ratio=1.40 / aq=1:0.80
Default : Да
Forced : Нет

Аудио #1
Идентификатор : 2
Формат : AC-3
Формат/Информация : Audio Coding 3
Коммерческое название : Dolby Digital
Идентификатор кодека : A_AC3
Продолжительность : 47 м. 13 с.
Вид битрейта : Постоянный
Битрейт : 448 Кбит/сек
Каналы : 6 каналов
Channel layout : L R C LFE Ls Rs
Частота : 48,0 КГц
Частота кадров : 31,250 кадров/сек (1536 SPF)
Метод сжатия : С потерями
Размер потока : 151 Мбайт (8%)
Язык : Russian
Service kind : Complete Main
Default : Да
Forced : Нет

Аудио #2
Идентификатор : 3
Формат : E-AC-3 JOC
Формат/Информация : Enhanced AC-3 with Joint Object Coding
Коммерческое название : Dolby Digital Plus with Dolby Atmos
Идентификатор кодека : A_EAC3
Продолжительность : 48 м. 51 с.
Вид битрейта : Постоянный
Битрейт : 768 Кбит/сек
Каналы : 6 каналов
Channel layout : L R C LFE Ls Rs
Частота : 48,0 КГц
Частота кадров : 31,250 кадров/сек (1536 SPF)
Метод сжатия : С потерями
Размер потока : 268 Мбайт (15%)
Язык : Korean
Service kind : Complete Main
Default : Нет
Forced : Нет
Complexity index : 16
Number of dynamic objects : 15
Bed channel count : 1 канал
Bed channel configuration : LFE

Аудио #3
Идентификатор : 4
Формат : E-AC-3 JOC
Формат/Информация : Enhanced AC-3 with Joint Object Coding
Коммерческое название : Dolby Digital Plus with Dolby Atmos
Идентификатор кодека : A_EAC3
Продолжительность : 48 м. 51 с.
Вид битрейта : Постоянный
Битрейт : 768 Кбит/сек
Каналы : 6 каналов
Channel layout : L R C LFE Ls Rs
Частота : 48,0 КГц
Частота кадров : 31,250 кадров/сек (1536 SPF)
Метод сжатия : С потерями
Размер потока : 268 Мбайт (15%)
Язык : English
Service kind : Complete Main
Default : Нет
Forced : Нет
Complexity index : 16
Number of dynamic objects : 15
Bed channel count : 1 канал
Bed channel configuration : LFE

Текст #1
Идентификатор : 5
Формат : UTF-8
Идентификатор кодека : S_TEXT/UTF8
Идентификатор кодека/Информация : UTF-8 Plain Text
Продолжительность : 42 м. 54 с.
Битрейт : 5 бит/сек
Count of elements : 28
Размер потока : 1,76 Кбайт (0%)
Заголовок : Forced
Язык : Russian
Default : Да
Forced : Нет

Текст #2
Идентификатор : 6
Формат : UTF-8
Идентификатор кодека : S_TEXT/UTF8
Идентификатор кодека/Информация : UTF-8 Plain Text
Продолжительность : 47 м. 2 с.
Битрейт : 99 бит/сек
Count of elements : 664
Размер потока : 34,3 Кбайт (0%)
Заголовок : Full
Язык : Russian
Default : Нет
Forced : Нет

Текст #3
Идентификатор : 7
Формат : UTF-8
Идентификатор кодека : S_TEXT/UTF8
Идентификатор кодека/Информация : UTF-8 Plain Text
Продолжительность : 42 м. 55 с.
Битрейт : 4 бит/сек
Count of elements : 42
Размер потока : 1,41 Кбайт (0%)
Заголовок : Forced
Язык : English
Default : Нет
Forced : Нет

Текст #4
Идентификатор : 8
Формат : UTF-8
Идентификатор кодека : S_TEXT/UTF8
Идентификатор кодека/Информация : UTF-8 Plain Text
Продолжительность : 44 м. 50 с.
Битрейт : 65 бит/сек
Count of elements : 654
Размер потока : 21,5 Кбайт (0%)
Заголовок : Full
Язык : English
Default : Нет
Forced : Нет

Текст #5
Идентификатор : 9
Формат : UTF-8
Идентификатор кодека : S_TEXT/UTF8
Идентификатор кодека/Информация : UTF-8 Plain Text
Продолжительность : 45 м. 17 с.
Битрейт : 85 бит/сек
Count of elements : 824
Размер потока : 28,3 Кбайт (0%)
Заголовок : SDH
Язык : English
Default : Нет
Forced : Нет

Текст #6
Идентификатор : 10
Формат : UTF-8
Идентификатор кодека : S_TEXT/UTF8
Идентификатор кодека/Информация : UTF-8 Plain Text
Продолжительность : 47 м. 2 с.
Битрейт : 0 бит/сек
Count of elements : 3
Размер потока : 58,0 байт (0%)
Заголовок : Forced
Язык : Korean
Default : Нет
Forced : Нет

Текст #7
Идентификатор : 11
Формат : UTF-8
Идентификатор кодека : S_TEXT/UTF8
Идентификатор кодека/Информация : UTF-8 Plain Text
Продолжительность : 45 м. 21 с.
Битрейт : 108 бит/сек
Count of elements : 842
Размер потока : 36,1 Кбайт (0%)
Заголовок : SDH
Язык : Korean
Default : Нет
Forced : Нет


_________________


На вопросы когда?, а можно? не отвечаю.
Добавить mytorrento.ru в поисковую строку

 Профиль
 
 

Запрещено категорически:
» Развязывать разборки (для этого есть ЛС)
» Оставлять комментарии, не относящиеся к содержанию материала.
» Добавлять спам, рекламу флуд..
К спаму относится:
1. Реклама любого направления.
2. Ссылки на сторонние ресурсы рекламного характера.
3. Ссылки на ресурсы порнографического направления.
4. Сылки на блоги и им подбным контeнтам.
» Запрещено оскорбление администрации, модераторов и пользователей.
» Часто писать с вкл. Caps Lock
»За нарушение правил бан или отключение без объяснений.
Уважайте чужой труд!

Правила могут дополняться и изменяться. С уважением Администрация.
Зов ада / Jiok / Сезон 1: 1-6 из 6 серий (Ён Сан-хо) [2021, фэнтези, драма, триллер, ужасы, WEB-DL 1080p] [HDrezka Studio].torrent 
Зарегистрирован:  24 ноя 2021, 06:39  HASH|fcbf90353a5eeaab2d5e2517834df7a106098fc2| (Google it!)
Автор раздачи:  Иваныч 
Статус:  √ Проверен  Иваныч (24 ноя 2021, 06:40)
Торрент:  Размер: 14.4 ГБ | Скачан: 20 раз | Торрент файл: 36.94 КБ  
Приватный:    Нет (DHT включён)   Раздают: 12  | Качают:
Здоровье:   100%
Поделиться:
 
Как качать?
Как качать?
X
Скачайте торрент и откройте его в своем клиенте
uTorrent

скачать программу,
дождитесь окончания загрузки.
* Как заливать?
Как заливать?
X

Для того чтобы начать загружать материалы необходимо:
1.Быть зарегистрированным пользователем.
2. Выбрать желаемое направление по жанру.
3. Иметь желание работать на сайте.
4. Возраст должен быть 18+.
5. Желательно иметь опыт работы на других трекерах,
если нет такового не страшно поможем.

Инструкция




Показать сообщения за:  Поле сортировки  
Начать новую тему Ответить на тему  [ 1 сообщение ] 

   Похожие торренты   Автор   Ответы   Просмотры   Последнее сообщение 
Непрочитанные сообщения Скачать торрент Магнет ссылка R пополняемая Перейти к первому непрочитанному сообщениюСоколиный Глаз / Hawkeye (Сезон 1 , Серия 1-2 из 6) (Берт, Кэти Эллвуд, Риз Томас) [2021, фантастика, боевик, драма, криминал, детектив, приключения, WEB-DL 1080p] [MVO] [HDrezka Studio] За каждые 14.4 байт. аплоада (сидирования) этого торрента начисляется бонус: 2.000

в форуме Зарубежние сериалы, Размер: 4.64 ГБ, Здоровье: 100%

K15

0
1168|577

64
3948

26 ноя 2021, 12:46

K15 Перейти к последнему сообщению

Непрочитанные сообщения Скачать торрент Магнет ссылка √ Проверен Перейти к первому непрочитанному сообщениюХанна / Hanna / 3 сезон / 1-6 из 6 (Сара Адина, Андерс Энгстрем, Джон Джонс) [2020, Боевик, драма, WEB-DLRip 1080p] [MVO] [HDRezka Studio] За каждые 14.4 байт. аплоада (сидирования) этого торрента начисляется бонус: 2.000

в форуме Законченные зарубежные сериалы, Размер: 14.96 ГБ, Здоровье: 100%

ZUBDOLGOPA

0
672|570

24
830

27 ноя 2021, 03:48

ZUBDOLGOPA Перейти к последнему сообщению

Непрочитанные сообщения Скачать торрент Магнет ссылка √ Проверен Перейти к первому непрочитанному сообщениюХороший, плохой, коп / Copshop (Джо Карнахан) [2021, Триллер, боевик, криминал, BDRip 1080p] [DUB,MVO] [iTunes, HDRezka Studio] За каждые 14.4 байт. аплоада (сидирования) этого торрента начисляется бонус: 2.000

в форуме Фильмы HDRip / BDRIp / 720, 1080, Размер: 13.2 ГБ, Здоровье: 100%

ZUBDOLGOPA

0
976|333

42
4744

27 ноя 2021, 04:03

ZUBDOLGOPA Перейти к последнему сообщению

Непрочитанные сообщения Скачать торрент Магнет ссылка R пополняемая Перейти к первому непрочитанному сообщениюСоколиный Глаз / Hawkeye (Сезон 1 , Серия 1-2 из 6) (Берт, Кэти Эллвуд, Риз Томас) [2021, фантастика, боевик, драма, криминал, детектив, приключения, WEB-DLRip] [MVO] [HDrezka Studio] За каждые 14.4 байт. аплоада (сидирования) этого торрента начисляется бонус: 2.000

в форуме Зарубежние сериалы, Размер: 1.32 ГБ, Здоровье: 100%

ZUBDOLGOPA

0
117|20

42
770

27 ноя 2021, 02:58

ZUBDOLGOPA Перейти к последнему сообщению

Непрочитанные сообщения Скачать торрент Магнет ссылка √ Проверен Перейти к первому непрочитанному сообщениюХороший, плохой, коп / Copshop (Джо Карнахан) [2021, Триллер, боевик, криминал, HDRip] [DUB,MVO] [iTunes, HDRezka Studio] За каждые 14.4 байт. аплоада (сидирования) этого торрента начисляется бонус: 2.000

в форуме Фильмы 2015-2021 г., Размер: 2.18 ГБ, Здоровье: 100%

ZUBDOLGOPA

0
270|50

42
309

27 ноя 2021, 03:56

ZUBDOLGOPA Перейти к последнему сообщению



Кто сейчас на конференции

Сейчас этот форум просматривают: нет зарегистрированных пользователей и гости: 1


Вы не можете начинать темы
Вы не можете отвечать на сообщения
Вы не можете редактировать свои сообщения
Вы не можете удалять свои сообщения
Вы не можете добавлять вложения

Найти:
Перейти:  
Привет, меня зовут Ёко, я что-то типа ангела хранителя Mytorrnado club! (Если вы попали на наш портал, советуем задержаться у нас и посмотрель материалы.А лучше всего оставайтесь и делитесь своими файлами со всем народом.Кроме этого вы сможете просмотреть нужный фильм в оригинальном качестве.Регистрируйтесь и воспользуйтесь всеми опциями трекера.)
ppkBB3cker v.2 © 2008-2014 @ PPK